<?xml version="1.0" standalone="no"?>
<!DOCTYPE svg PUBLIC "-//W3C//DTD SVG 1.1//EN" "http://www.w3.org/Graphics/SVG/1.1/DTD/svg11.dtd">
<svg xmlns="http://www.w3.org/2000/svg">
<defs >
<font id="DMSans" horiz-adv-x="544" ><font-face
    font-family="DM Sans"
    units-per-em="1000"
    panose-1="0 0 0 0 0 0 0 0 0 0"
    ascent="992"
    descent="-310"
    alphabetic="0" />
<glyph unicode=" " glyph-name="space" horiz-adv-x="265" />
<glyph unicode="!" glyph-name="exclam" horiz-adv-x="248" d="M87 194L77 700H168L158 194H87ZM125 -5Q100 -5 84 11T67 52Q67 76 83 92T125 109Q149 109 165 93T182 52Q182 28 166 12T125 -5Z" />
<glyph unicode="&quot;" glyph-name="quotedbl" horiz-adv-x="284" d="M178 558L167 755H246L237 558H178ZM48 558L37 755H116L106 558H48Z" />
<glyph unicode="#" glyph-name="numbersign" horiz-adv-x="814" d="M145 0L188 197H46V272H204L238 435H88V509H254L296 706H376L334 509H549L591 706H670L628 509H767V435H612L578 272H723V197H562L519 0H439L482 197H267L225 0H145ZM283 272H498L533 435H318L283 272Z" />
<glyph unicode="$" glyph-name="dollar" horiz-adv-x="578" d="M256 -87V-10Q158 1 101 60T44 210H132Q132 157 163 116T256 62V333Q249 335 242 337T227 342Q146 370 107 411T68 520Q67 598 117 650T256 710V791H325V710Q409 700 459 647T510 518H422Q422 555
398 589T325 636V394Q333 392 341 389T358 384Q408 366 448 342T510 280T533 183Q533 136 510 94T441 23T325 -11V-87H256ZM155 528Q155 482 182 459T256 418V638Q211 631 183 603T155 528ZM446 178Q446 236 412 264T325 310V60Q383 67 414 100T446 178Z" />
<glyph unicode="%" glyph-name="percent" horiz-adv-x="773" d="M200 375Q155 375 119 395T61 453T40 543Q40 595 61 632T119 690T201 711Q246 711 282 691T339 633T360 543Q360 491 339 454T281 396T200 375ZM138 0L545 700H629L222 0H138ZM200 440Q235 440 261
466T288 543Q288 595 262 621T201 648Q166 648 139 622T111 543Q111 492 138 466T200 440ZM574 -12Q529 -12 493 8T435 66T414 156Q414 208 435 245T493 303T574 324Q619 324 655 304T712 246T733 156Q733 104 712 67T655 9T574 -12ZM573 53Q609 53 635 79T662
156Q662 208 636 234T574 260Q539 260 512 234T485 156Q485 105 511 79T573 53Z" />
<glyph unicode="&amp;" glyph-name="ampersand" horiz-adv-x="732" d="M281 -12Q209 -12 155 14T70 88T39 201Q39 272 80 327T201 415Q167 452 152 485T137 558Q137 625 184 668T315 712Q369 712 409 692T471 635T491 553H408Q409 598 381 621T315 644Q270 644
245 620T220 559Q220 527 237 497T290 430L511 207Q540 249 574 308L605 362H694L650 284Q606 205 566 152L717 0H611L518 94Q465 37 408 13T281 -12ZM123 204Q123 142 167 101T282 60Q335 60 378 80T464 148L252 363Q186 337 155 297T123 204Z" />
<glyph unicode="&apos;" glyph-name="quotesingle" horiz-adv-x="157" d="M50 558L37 755H120L108 558H50Z" />
<glyph unicode="(" glyph-name="parenleft" horiz-adv-x="372" d="M248 -145Q194 -93 148 -22T75 139T47 333Q47 437 74 526T148 687T248 811H334V803Q242 713 187 593T131 333Q131 194 187 74T334 -137V-145H248Z" />
<glyph unicode=")" glyph-name="parenright" horiz-adv-x="372" d="M38 -145V-137Q129 -47 185 73T242 333Q242 472 186 592T39 803V811H124Q179 759 224 688T297 527T325 333Q325 229 298 140T225 -21T124 -145H38Z" />
<glyph unicode="*" glyph-name="asterisk" horiz-adv-x="478" d="M208 360L220 513L96 426L61 487L200 548L62 608L95 667L221 580L207 733H275L260 580L385 667L417 609L279 547L418 486L385 427L260 513L274 360H208Z" />
<glyph unicode="+" glyph-name="plus" horiz-adv-x="583" d="M63 255V326H254V508H329V326H520V255H329V72H254V255H63Z" />
<glyph unicode="," glyph-name="comma" horiz-adv-x="178" d="M2 -119L60 102H147L60 -119H2Z" />
<glyph unicode="-" glyph-name="hyphen" horiz-adv-x="513" d="M315 255V326H711V255H315Z" />
<glyph unicode="." glyph-name="period" horiz-adv-x="195" d="M98 -5Q73 -5 57 11T40 52Q40 76 56 92T98 109Q122 109 138 93T155 52Q155 28 139 12T98 -5Z" />
<glyph unicode="/" glyph-name="slash" horiz-adv-x="391" d="M28 -95L279 764H362L111 -95H28Z" />
<glyph unicode="0" glyph-name="zero" horiz-adv-x="693" d="M347 -12Q254 -12 187 33T83 160T47 350Q47 458 83 539T186 666T347 712Q440 712 507 667T610 540T646 350Q646 242 610 161T507 34T347 -12ZM347 62Q408 62 456 96T532 195T560 350Q560 440 533 504T457
602T347 637Q285 637 237 603T161 504T133 350Q133 260 161 196T237 97T347 62Z" />
<glyph unicode="1" glyph-name="one" horiz-adv-x="302" d="M143 0V606L30 581V639L171 700H228V0H143Z" />
<glyph unicode="2" glyph-name="two" horiz-adv-x="572" d="M63 0V59Q134 115 197 172T310 286T388 396T417 500Q417 537 405 569T364 620T288 640Q242 640 211 620T165 565T149 492H68Q68 561 97 610T176 686T289 712Q382 712 441 660T501 503Q501 441 470 381T391
264T289 158T187 70H525V0H63Z" />
<glyph unicode="3" glyph-name="three" horiz-adv-x="588" d="M292 -12Q225 -12 171 12T85 86T50 208H135Q136 148 177 105T292 61Q366 61 403 102T441 201Q441 250 418 281T355 327T268 342H216V413H268Q336 413 374 444T413 531Q413 578 383 608T292 639Q234
639 199 605T160 518H75Q78 575 105 619T181 687T292 712Q360 712 405 688T474 624T498 536Q498 483 469 440T382 381Q444 368 485 322T526 201Q526 143 500 95T421 17T292 -12Z" />
<glyph unicode="4" glyph-name="four" horiz-adv-x="605" d="M391 0V150H36V215L376 700H474V224H578V150H474V0H391ZM129 224H395V607L129 224Z" />
<glyph unicode="5" glyph-name="five" horiz-adv-x="612" d="M312 -12Q240 -12 187 14T103 85T64 189H146Q158 131 202 96T313 60Q363 60 399 83T454 147T474 236Q474 314 430 362T316 410Q258 410 217 384T157 316H77L137 700H504V627H202L161 414Q185 443 227
462T325 481Q394 481 445 449T526 362T555 237Q555 170 527 113T444 22T312 -12Z" />
<glyph unicode="6" glyph-name="six" horiz-adv-x="630" d="M326 -12Q250 -12 198 16T115 93T69 200T54 322Q54 438 86 525T178 662T325 712Q391 712 438 686T512 617T547 520H469Q458 577 420 608T324 639Q245 639 192 565T134 332Q158 379 210 413T337 448Q397
448 449 420T535 342T568 223Q568 164 539 110T456 22T326 -12ZM320 62Q367 62 404 82T462 137T483 219Q483 290 437 332T320 375Q273 375 236 354T178 296T156 218Q156 173 177 138T236 82T320 62Z" />
<glyph unicode="7" glyph-name="seven" horiz-adv-x="533" d="M132 0L410 628H26V700H496V637L221 0H132Z" />
<glyph unicode="8" glyph-name="eight" horiz-adv-x="610" d="M305 -12Q236 -12 181 13T95 84T63 190Q63 254 100 305T200 373Q143 392 112 434T81 526Q81 577 108 619T185 687T305 712Q375 712 425 687T502 620T529 526Q529 477 498 435T410 373Q472 356 509
305T547 190Q547 130 516 85T429 14T305 -12ZM305 403Q369 403 406 435T444 521Q444 580 407 610T305 640Q240 640 204 610T167 521Q167 468 204 436T305 403ZM305 62Q384 62 423 98T463 195Q463 263 420 298T305 333Q233 333 190 298T147 195Q147 135 186 99T305
62Z" />
<glyph unicode="9" glyph-name="nine" horiz-adv-x="630" d="M305 -12Q239 -12 192 14T118 83T84 180H162Q172 123 210 92T306 61Q386 61 439 135T496 368Q472 321 420 287T293 252Q234 252 181 280T95 358T62 477Q62 536 91 590T175 678T304 712Q380 712 432
684T515 607T561 500T576 378Q576 262 544 175T452 38T305 -12ZM310 325Q357 325 394 346T453 404T475 482Q475 527 453 562T394 618T310 638Q263 638 226 618T168 563T147 481Q147 410 193 368T310 325Z" />
<glyph unicode=":" glyph-name="colon" horiz-adv-x="199" d="M98 -5Q73 -5 57 11T40 52Q40 76 56 92T98 109Q122 109 138 93T155 52Q155 28 139 12T98 -5ZM98 394Q73 394 57 410T40 451Q40 475 56 491T98 508Q122 508 138 492T155 451Q155 427 139 411T98 394Z" />
<glyph unicode=";" glyph-name="semicolon" horiz-adv-x="223" d="M123 394Q98 394 82 410T65 451Q65 475 81 491T123 508Q147 508 163 492T180 451Q180 427 164 411T123 394ZM23 -119L81 102H168L81 -119H23Z" />
<glyph unicode="&lt;" glyph-name="less" horiz-adv-x="499" d="M316 137L72 367L316 598H423L178 367L423 137H316Z" />
<glyph unicode="=" glyph-name="equal" horiz-adv-x="525" d="M63 359V431H462V359H63ZM63 151V223H462V151H63Z" />
<glyph unicode="&gt;" glyph-name="greater" horiz-adv-x="499" d="M76 137L321 367L76 598H183L427 367L183 137H76Z" />
<glyph unicode="?" glyph-name="question" horiz-adv-x="516" d="M151 196L147 357H178Q234 357 282 368T361 411T391 507Q391 569 353 605T251 641Q187 641 150 606T113 512H33Q33 572 60 617T137 687T251 712Q316 712 366 687T444 616T472 507Q472 433 441 387T354
320T227 299L224 196H151ZM187 -5Q162 -5 146 11T129 52Q129 76 145 92T187 109Q212 109 228 93T244 52Q244 28 228 12T187 -5Z" />
<glyph unicode="@" glyph-name="at" horiz-adv-x="1013" d="M432 -199Q325 -199 245 -158T120 -42T75 136Q75 242 112 334T216 495T374 602T574 640Q685 640 767 598T893 480T938 304Q938 247 924 192T883 92T816 21T725 -6Q674 -6 648 20T618 90Q587 45 540 20T439
-6Q363 -6 321 40T278 164Q278 219 295 269T345 359T421 422T519 445Q620 445 650 362L663 434H734L684 148Q677 105 688 79T737 52Q769 52 794 74T836 134T861 215T870 300Q870 431 789 506T564 581Q473 581 397 547T263 453T175 314T143 143Q143 53 180 -10T285
-106T447 -139Q490 -139 533 -131T613 -105L627 -162Q537 -199 432 -199ZM464 58Q507 58 543 81T602 144T630 238Q637 297 610 339T521 381Q470 381 433 352T375 275T355 177Q355 123 382 91T464 58Z" />
<glyph unicode="A" glyph-name="A" horiz-adv-x="664" d="M30 0L288 700H377L634 0H545L481 180H183L118 0H30ZM208 248H456L332 594L208 248Z" />
<glyph unicode="B" glyph-name="B" horiz-adv-x="602" d="M74 0V700H320Q394 700 442 677T515 613T539 522Q539 454 503 415T415 361Q454 354 486 330T536 270T555 191Q555 138 529 95T452 26T328 0H74ZM158 394H314Q381 394 417 425T453 513Q453 566 418 598T311
630H158V394ZM158 70H319Q391 70 430 103T469 197Q469 256 428 291T317 327H158V70Z" />
<glyph unicode="C" glyph-name="C" horiz-adv-x="720" d="M381 -12Q278 -12 204 33T88 160T47 350Q47 457 88 538T203 666T381 712Q501 712 576 655T673 494H580Q564 559 515 598T381 638Q306 638 250 604T164 505T133 350Q133 260 163 196T250 97T381 62Q465
62 514 100T580 203H673Q652 102 577 45T381 -12Z" />
<glyph unicode="D" glyph-name="D" horiz-adv-x="696" d="M74 0V700H289Q474 700 561 606T649 348Q649 187 562 94T289 0H74ZM158 70H287Q389 70 449 103T536 199T562 348Q562 436 536 499T450 596T287 630H158V70Z" />
<glyph unicode="E" glyph-name="E" horiz-adv-x="564" d="M74 0V700H507V631H158V387H477V319H158V69H507V0H74Z" />
<glyph unicode="F" glyph-name="F" horiz-adv-x="534" d="M74 0V700H500V631H158V385H449V317H158V0H74Z" />
<glyph unicode="G" glyph-name="G" horiz-adv-x="757" d="M375 -12Q277 -12 203 33T88 160T47 349Q47 456 88 538T206 666T387 712Q505 712 583 655T685 498H588Q574 561 522 598T387 635Q310 635 253 601T165 502T133 349Q133 260 164 196T250 98T378 63Q490
63 547 128T612 308H410V374H698V0H621L614 115Q576 54 521 21T375 -12Z" />
<glyph unicode="H" glyph-name="H" horiz-adv-x="679" d="M74 0V700H158V391H521V700H605V0H521V322H158V0H74Z" />
<glyph unicode="I" glyph-name="I" horiz-adv-x="232" d="M74 0V700H158V0H74Z" />
<glyph unicode="J" glyph-name="J" horiz-adv-x="499" d="M230 -12Q135 -12 81 41T27 188H112Q112 135 138 99T229 63Q292 63 316 98T341 185V700H425V185Q425 92 374 40T230 -12Z" />
<glyph unicode="K" glyph-name="K" horiz-adv-x="582" d="M74 0V700H158V383L450 700H556L296 421L560 0H458L236 356L158 273V0H74Z" />
<glyph unicode="L" glyph-name="L" horiz-adv-x="525" d="M74 0V700H158V67H484V0H74Z" />
<glyph unicode="M" glyph-name="M" horiz-adv-x="847" d="M74 0V700H172L424 212L674 700H773V0H689V550L455 100H392L158 549V0H74Z" />
<glyph unicode="N" glyph-name="N" horiz-adv-x="689" d="M74 0V700H158L531 139V700H615V0H531L158 561V0H74Z" />
<glyph unicode="O" glyph-name="O" horiz-adv-x="784" d="M392 -12Q289 -12 212 33T91 161T47 350Q47 457 90 538T211 666T392 712Q496 712 573 666T694 539T737 350Q737 243 694 161T574 34T392 -12ZM392 62Q469 62 527 96T618 195T651 350Q651 440 619 504T528
602T392 637Q315 637 257 603T166 504T133 350Q133 260 165 196T256 97T392 62Z" />
<glyph unicode="P" glyph-name="P" horiz-adv-x="579" d="M74 0V700H304Q386 700 439 673T517 600T543 496Q543 439 518 393T440 320T304 292H158V0H74ZM158 363H302Q386 363 421 398T457 496Q457 559 422 594T302 630H158V363Z" />
<glyph unicode="Q" glyph-name="Q" horiz-adv-x="789" d="M392 -12Q289 -12 212 33T91 161T47 350Q47 457 90 538T211 666T392 712Q496 712 573 666T694 539T737 350Q737 243 694 162T576 35L753 -135H644L502 3Q451 -12 392 -12ZM392 62Q469 62 527 96T618 195T651
350Q651 440 619 504T528 602T392 637Q315 637 257 603T166 504T133 350Q133 260 165 196T256 97T392 62Z" />
<glyph unicode="R" glyph-name="R" horiz-adv-x="593" d="M74 0V700H300Q382 700 434 673T511 599T536 495Q536 429 501 376T390 301L543 0H444L302 289H296H158V0H74ZM158 355H294Q375 355 412 394T449 494Q449 556 413 592T293 629H158V355Z" />
<glyph unicode="S" glyph-name="S" horiz-adv-x="578" d="M297 -12Q220 -12 163 16T75 94T44 210H132Q132 169 151 135T206 80T297 59Q368 59 407 93T446 178Q446 220 428 245T380 287T310 315T227 342Q146 370 107 411T68 520Q67 576 94 619T170 687T288 712Q355
712 404 687T481 618T510 518H422Q422 547 407 575T362 622T285 640Q228 641 192 611T155 528Q155 483 180 459T252 420T358 384Q408 366 448 342T510 280T533 183Q533 133 507 89T429 16T297 -12Z" />
<glyph unicode="T" glyph-name="T" horiz-adv-x="560" d="M238 0V631H29V700H531V631H322V0H238Z" />
<glyph unicode="U" glyph-name="U" horiz-adv-x="656" d="M327 -12Q255 -12 197 16T103 105T68 258V700H152V257Q152 155 201 109T329 63Q408 63 456 109T504 257V700H588V258Q588 165 553 105T459 17T327 -12Z" />
<glyph unicode="V" glyph-name="V" horiz-adv-x="668" d="M285 0L22 700H113L334 89L557 700H646L383 0H285Z" />
<glyph unicode="W" glyph-name="W" horiz-adv-x="967" d="M218 -1L26 700H116L267 99L439 700H532L699 99L852 700H942L746 0H650L483 578L312 0L218 -1Z" />
<glyph unicode="X" glyph-name="X" horiz-adv-x="602" d="M38 0L252 353L38 700H133L305 420L469 700H563L349 349L564 0H469L296 281L133 0H38Z" />
<glyph unicode="Y" glyph-name="Y" horiz-adv-x="579" d="M248 0V266L20 700H115L290 346L465 700H559L332 266V0H248Z" />
<glyph unicode="Z" glyph-name="Z" horiz-adv-x="535" d="M44 0V66L389 627H49V700H487V634L141 73H491V0H44Z" />
<glyph unicode="[" glyph-name="bracketleft" horiz-adv-x="307" d="M74 -151V811H248V742H153V-81H248V-151H74Z" />
<glyph unicode="\" glyph-name="backslash" horiz-adv-x="391" d="M280 -95L28 764H112L362 -95H280Z" />
<glyph unicode="]" glyph-name="bracketright" horiz-adv-x="307" d="M59 -151V-81H154V742H59V811H233V-151H59Z" />
<glyph unicode="^" glyph-name="asciicircum" horiz-adv-x="620" d="M37 178L272 700H349L584 178H498L311 597L123 178H37Z" />
<glyph unicode="_" glyph-name="underscore" horiz-adv-x="642" d="M59 -115V-36H583V-115H59Z" />
<glyph unicode="`" glyph-name="grave" horiz-adv-x="254" d="M232 537L22 654V727L232 600V537Z" />
<glyph unicode="a" glyph-name="a" horiz-adv-x="541" d="M234 -12Q172 -12 131 9T70 65T50 141Q50 217 108 258T266 299H400V305Q400 370 366 403T275 437Q226 437 191 413T146 341H60Q65 395 96 432T175 488T275 508Q379 508 431 453T484 305V0H409L404 89Q383
47 343 18T234 -12ZM247 59Q295 59 329 84T382 149T400 233V234H273Q199 234 169 209T138 145Q138 106 166 83T247 59Z" />
<glyph unicode="b" glyph-name="b" horiz-adv-x="628" d="M334 -12Q273 -12 226 13T153 83L145 0H69V720H153V414Q177 450 221 479T335 508Q409 508 464 474T549 381T580 247Q580 172 550 114T464 22T334 -12ZM325 61Q375 61 413 84T473 150T495 248Q495 304 473
346T413 411T325 435Q275 435 237 412T177 346T155 248Q155 192 177 150T237 85T325 61Z" />
<glyph unicode="c" glyph-name="c" horiz-adv-x="570" d="M297 -12Q226 -12 170 20T81 111T48 248Q48 326 80 384T169 475T297 508Q385 508 445 462T522 339H436Q426 385 387 410T296 436Q254 436 217 415T157 352T134 248Q134 186 157 144T217 81T296 59Q348
59 387 84T436 157H522Q507 82 446 35T297 -12Z" />
<glyph unicode="d" glyph-name="d" horiz-adv-x="628" d="M294 -12Q220 -12 165 22T79 115T48 249Q48 324 79 382T165 474T295 508Q356 508 403 483T476 413V720H560V0H484L476 82Q452 46 407 17T294 -12ZM303 61Q353 61 391 84T451 150T473 248Q473 304 452 346T392
411T303 435Q254 435 216 412T156 346T134 248Q134 192 155 150T215 85T303 61Z" />
<glyph unicode="e" glyph-name="e" horiz-adv-x="569" d="M292 -12Q221 -12 166 20T80 111T48 248Q48 326 79 384T165 475T294 508Q366 508 418 476T499 390T527 276Q527 265 527 254T526 229H131Q134 172 157 135T216 78T292 59Q344 59 379 83T430 148H513Q493
79 437 34T292 -12ZM292 437Q232 437 186 401T132 294H444Q441 361 398 399T292 437Z" />
<glyph unicode="f" glyph-name="f" horiz-adv-x="333" d="M96 0V425H21V496H96V582Q96 654 132 687T237 720H287V648H250Q212 648 196 633T180 580V496H302V425H180V0H96Z" />
<glyph unicode="g" glyph-name="g" horiz-adv-x="552" d="M265 156Q223 156 188 167L138 120Q149 112 165 107T213 97T300 87Q400 80 443 41T486 -61Q486 -104 463 -143T391 -207T266 -232Q199 -232 147 -215T66 -162T37 -72Q37 -44 52 -12T108 50Q86 59 71 69T42
93V116L127 200Q68 250 68 332Q68 381 91 421T158 484T265 508Q308 508 343 496H526V433L433 429Q462 387 462 332Q462 283 439 243T372 180T265 156ZM265 225Q318 225 349 252T381 332Q381 383 350 410T265 438Q211 438 180 411T148 332Q148 280 179 253T265 225ZM119
-64Q119 -114 161 -138T266 -163Q328 -163 365 -136T403 -64Q403 -32 377 -9T281 19Q226 23 186 29Q145 7 132 -18T119 -64Z" />
<glyph unicode="h" glyph-name="h" horiz-adv-x="572" d="M69 0V720H153V411Q178 457 224 482T324 508Q410 508 462 455T514 290V0H431V281Q431 436 306 436Q241 436 197 390T153 257V0H69Z" />
<glyph unicode="i" glyph-name="i" horiz-adv-x="239" d="M120 606Q95 606 79 622T62 664Q62 688 78 704T120 720Q144 720 161 704T178 664Q178 639 161 623T120 606ZM78 0V496H162V0H78Z" />
<glyph unicode="j" glyph-name="j" horiz-adv-x="242" d="M124 606Q100 606 83 622T66 664Q66 688 83 704T124 720Q148 720 164 704T181 664Q181 639 165 623T124 606ZM-28 -220V-148H11Q48 -148 64 -133T81 -80V496H165V-82Q165 -154 129 -187T24 -220H-28Z" />
<glyph unicode="k" glyph-name="k" horiz-adv-x="504" d="M69 0V720H153V287L356 496H459L239 272L487 0H380L153 257V0H69Z" />
<glyph unicode="l" glyph-name="l" horiz-adv-x="222" d="M69 0V720H153V0H69Z" />
<glyph unicode="m" glyph-name="m" horiz-adv-x="895" d="M69 0V496H145L151 424Q175 464 215 486T305 508Q364 508 406 484T472 411Q498 456 543 482T642 508Q731 508 784 455T837 290V0H754V281Q754 358 723 397T634 436Q574 436 535 390T495 257V0H411V281Q411
358 380 397T291 436Q232 436 193 390T153 257V0H69Z" />
<glyph unicode="n" glyph-name="n" horiz-adv-x="572" d="M69 0V496H145L150 407Q174 454 219 481T321 508Q409 508 461 455T514 290V0H430V281Q430 436 302 436Q238 436 196 390T153 257V0H69Z" />
<glyph unicode="o" glyph-name="o" horiz-adv-x="592" d="M295 -12Q225 -12 169 20T81 110T48 248Q48 327 81 385T170 476T297 508Q367 508 423 476T511 386T544 248Q544 169 511 111T422 20T295 -12ZM295 60Q338 60 375 81T435 144T458 248Q458 310 436 352T376
415T297 436Q254 436 217 415T157 352T134 248Q134 186 157 144T216 81T295 60Z" />
<glyph unicode="p" glyph-name="p" horiz-adv-x="628" d="M69 -220V496H145L153 414Q177 450 221 479T335 508Q409 508 464 474T549 381T580 247Q580 172 550 114T464 22T334 -12Q273 -12 226 13T153 83V-220H69ZM325 61Q375 61 413 84T473 150T495 248Q495 304
473 346T413 411T325 435Q275 435 237 412T177 346T155 248Q155 192 177 150T237 85T325 61Z" />
<glyph unicode="q" glyph-name="q" horiz-adv-x="628" d="M476 -220V82Q452 46 407 17T294 -12Q220 -12 165 22T79 115T48 249Q48 324 79 382T165 474T295 508Q356 508 403 483T476 413L484 496H560V-220H476ZM303 61Q353 61 391 84T451 150T473 248Q473 304 452
346T392 411T303 435Q254 435 216 412T156 346T134 248Q134 192 155 150T215 85T303 61Z" />
<glyph unicode="r" glyph-name="r" horiz-adv-x="363" d="M69 0V496H145L152 401Q175 450 222 479T338 508V420H315Q271 420 234 405T175 352T153 250V0H69Z" />
<glyph unicode="s" glyph-name="s" horiz-adv-x="500" d="M259 -12Q170 -12 111 33T42 155H128Q136 116 169 88T260 59Q313 59 338 81T363 135Q363 180 331 195T239 222Q199 230 159 245T92 287T65 360Q65 425 113 466T245 508Q324 508 374 469T433 356H350Q345
394 318 415T244 437Q199 437 175 418T150 368Q150 338 181 321T267 292Q313 282 354 268T422 225T449 142Q450 75 399 32T259 -12Z" />
<glyph unicode="t" glyph-name="t" horiz-adv-x="387" d="M265 0Q197 0 158 33T119 152V425H33V496H119L130 615H203V496H349V425H203V152Q203 105 222 89T289 72H341V0H265Z" />
<glyph unicode="u" glyph-name="u" horiz-adv-x="572" d="M250 -12Q162 -12 110 41T58 206V496H142V215Q142 60 269 60Q334 60 376 106T419 239V496H503V0H427L421 89Q398 42 353 15T250 -12Z" />
<glyph unicode="v" glyph-name="v" horiz-adv-x="521" d="M212 0L24 496H112L261 81L411 496H497L309 0H212Z" />
<glyph unicode="w" glyph-name="w" horiz-adv-x="754" d="M169 0L24 496H108L213 107L329 496H424L541 107L645 496H730L585 0H499L377 409L255 0H169Z" />
<glyph unicode="x" glyph-name="x" horiz-adv-x="498" d="M19 0L191 248L19 496H110L249 291L389 496H479L307 248L479 0H389L249 205L110 0H19Z" />
<glyph unicode="y" glyph-name="y" horiz-adv-x="556" d="M123 -220L246 48H217L20 496H111L275 110L449 496H536L211 -220H123Z" />
<glyph unicode="z" glyph-name="z" horiz-adv-x="452" d="M35 0V69L311 426H40V496H405V427L129 70H410V0H35Z" />
<glyph unicode="{" glyph-name="braceleft" horiz-adv-x="425" d="M320 -152Q252 -152 210 -115T168 -2Q168 32 173 59T184 116T190 184Q190 220 169 251T87 296V364Q148 377 169 408T190 476Q190 514 185 543T174 599T168 661Q168 737 210 774T320 811H373V739H335Q293
739 272 720T250 654Q250 625 255 599T265 543T271 473Q271 420 245 382T160 331V329Q218 315 244 277T271 186Q271 147 266 118T255 62T250 5Q250 -40 271 -60T335 -80H373V-152H320Z" />
<glyph unicode="|" glyph-name="bar" horiz-adv-x="232" d="M74 -100V720H158V-100H74Z" />
<glyph unicode="}" glyph-name="braceright" horiz-adv-x="425" d="M52 -152V-80H90Q131 -80 153 -60T175 5Q175 35 170 61T160 117T154 186Q154 239 180 277T265 329V331Q206 344 180 382T154 473Q154 513 159 542T170 598T175 654Q175 700 153 719T90 739H52V811H105Q173
811 214 774T256 661Q256 627 251 600T241 543T235 476Q235 439 256 408T338 364V296Q277 283 256 252T235 184Q235 145 240 116T251 60T256 -2Q256 -77 215 -114T105 -152H52Z" />
<glyph unicode="~" glyph-name="asciitilde" horiz-adv-x="508" d="M337 249Q308 249 286 259T245 283T207 306T166 316Q139 316 122 298T100 250H37Q49 322 83 356T171 391Q199 391 222 381T264 358T302 335T342 325Q369 325 386 343T408 391H471Q460 319 426
284T337 249Z" />
<glyph unicode="&#xa0;" glyph-name="uni00A0" horiz-adv-x="265" />
<glyph unicode="&#xa1;" glyph-name="exclamdown" horiz-adv-x="248" d="M125 448Q100 448 84 464T67 505Q67 529 83 546T125 563Q149 563 165 546T182 505Q182 481 166 465T125 448ZM77 -143L87 363H158L168 -143H77Z" />
<glyph unicode="&#xa2;" glyph-name="cent" horiz-adv-x="570" d="M255 -104V-9Q194 0 148 34T75 123T48 248Q48 318 74 372T147 461T255 505V600H336V505Q409 496 458 452T522 339H436Q426 385 387 410T296 436Q254 436 217 415T157 352T134 248Q134 186 157
144T217 81T296 59Q348 59 387 84T436 157H522Q508 91 459 46T336 -9V-104H255Z" />
<glyph unicode="&#xa3;" glyph-name="sterling" horiz-adv-x="600" d="M87 0V54Q111 81 130 107T159 165T170 240Q170 259 167 276T159 310H45V369H138Q127 399 118 432T109 507Q109 569 136 615T211 686T322 712Q393 712 440 684T511 610T539 507H462Q459 565
424 603T322 642Q287 642 257 628T208 583T189 503Q189 468 198 435T220 369H412V310H239Q244 293 246 276T249 242Q249 145 176 69H541V-1L87 0Z" />
<glyph unicode="&#xa4;" glyph-name="currency" horiz-adv-x="532" d="M103 92L65 130L124 189Q92 234 92 297Q92 330 101 357T126 406L65 466L103 504L164 443Q208 473 267 473Q325 473 369 443L429 504L467 466L407 406Q423 385 432 358T441 297Q441 265 433
238T408 189L467 130L429 92L370 152Q325 121 266 121Q206 121 162 152L103 92ZM266 186Q289 186 311 197T347 232T362 297Q362 356 332 382T266 409Q229 409 200 383T171 297Q171 238 200 212T266 186Z" />
<glyph unicode="&#xa5;" glyph-name="yen" horiz-adv-x="601" d="M59 167V228H259V266L232 318L59 319V379H200L31 700H126L301 343L475 700H570L402 379H543V319L370 318L343 266V228H543V167H343V0H259V167H59Z" />
<glyph unicode="&#xa6;" glyph-name="brokenbar" horiz-adv-x="232" d="M74 387V720H158V387H74ZM74 -100V233H158V-100H74Z" />
<glyph unicode="&#xa7;" glyph-name="section" horiz-adv-x="584" d="M289 -232Q222 -232 173 -207T96 -138T67 -38H155Q155 -67 170 -95T215 -142T292 -160Q349 -161 385 -131T422 -48Q422 -3 397 20T325 59T219 95Q169 112 129 136T67 199T44 295Q44 332 58
366T100 428Q73 465 73 520Q73 576 100 619T176 687T294 712Q361 712 410 687T487 618T516 518H428Q428 547 413 575T368 622T291 640Q234 641 198 611T161 528Q161 483 186 460T258 421T364 385Q414 368 453 344T516 281T539 185Q539 148 525 114T482 52Q509 13
509 -40Q510 -96 483 -139T407 -207T289 -232ZM422 104Q452 134 452 180Q452 220 435 245T388 286T320 314T238 342Q214 349 196 358T161 376Q131 346 131 300Q131 260 148 235T195 194T263 166T345 138Q368 131 387 122T422 104Z" />
<glyph unicode="&#xa8;" glyph-name="dieresis" horiz-adv-x="322" d="M242 571Q221 571 207 585T192 621Q192 641 206 656T242 671Q262 671 276 656T291 621Q291 600 277 586T242 571ZM81 571Q60 571 46 585T32 621Q32 641 46 656T81 671Q102 671 116 656T131
621Q131 600 117 586T81 571Z" />
<glyph unicode="&#xa9;" glyph-name="copyright" horiz-adv-x="794" d="M397 -4Q294 -4 216 41T95 167T51 350Q51 454 94 534T216 659T397 704Q500 704 578 659T699 534T743 350Q743 247 700 167T578 42T397 -4ZM397 33Q491 33 560 73T666 185T704 350Q704 445
667 516T560 628T397 668Q303 668 234 628T128 517T90 350Q90 257 127 185T234 73T397 33ZM397 119Q337 119 288 146T210 225T180 351Q180 424 209 476T288 555T397 583Q471 583 527 544T602 430H525Q511 475 476 498T396 522Q338 522 296 479T254 350Q254 265
296 222T396 179Q494 179 525 270H602Q583 200 527 160T397 119Z" />
<glyph unicode="&#xaa;" glyph-name="ordfeminine" horiz-adv-x="448" d="M201 347Q153 347 115 370T56 435T34 529Q34 583 55 623T114 686T199 709Q250 709 284 688T333 634L340 703H400V353H340L333 422Q319 389 285 368T201 347ZM217 400Q266 400 299 434T333
528Q333 589 300 622T217 656Q170 656 137 623T103 529Q103 468 136 434T217 400Z" />
<glyph unicode="&#xab;" glyph-name="guillemotleft" horiz-adv-x="452" d="M319 120L222 295L319 470H402L302 295L402 120H319ZM141 120L44 295L141 470H224L124 295L224 120H141Z" />
<glyph unicode="&#xac;" glyph-name="logicalnot" horiz-adv-x="660" d="M531 223V365H45V432H615V223H531Z" />
<glyph unicode="&#xad;" glyph-name="uni00AD" horiz-adv-x="600" d="M315 255V326H711V255H315Z" />
<glyph unicode="&#xae;" glyph-name="registered" horiz-adv-x="504" d="M253 307Q194 307 149 333T78 405T52 509Q52 567 77 613T148 685T253 712Q311 712 356 686T426 613T452 509Q452 451 427 405T356 333T253 307ZM253 343Q325 343 369 389T413 509Q413 582
369 628T253 675Q179 675 135 629T91 509Q91 436 135 390T253 343ZM173 403V618H268Q302 618 321 601T341 552Q341 528 328 512T291 489L349 404L293 403L241 487H220V403H173ZM220 525H264Q277 525 285 531T294 551Q294 564 286 570T264 576H220V525Z" />
<glyph unicode="&#xaf;" glyph-name="overscore" horiz-adv-x="392" d="M22 592V655H370V592H22Z" />
<glyph unicode="&#xb0;" glyph-name="degree" horiz-adv-x="343" d="M171 444Q117 444 78 480T39 577Q39 618 57 648T106 695T172 712Q225 712 264 676T303 577Q303 537 285 507T237 461T171 444ZM171 506Q195 506 216 524T238 578Q238 614 217 632T172 650Q147
650 126 632T105 578Q105 542 125 524T171 506Z" />
<glyph unicode="&#xb1;" glyph-name="plusminus" horiz-adv-x="603" d="M64 266V337H264V478H339V337H539V266H339V125H264V266H64ZM64 0V73H539V0H64Z" />
<glyph unicode="&#xb2;" glyph-name="uni00B2" horiz-adv-x="330" d="M35 352V400L147 492Q176 516 195 541T215 600Q215 630 199 644T160 659Q107 659 100 600H33Q36 646 69 678T164 710Q221 710 253 679T286 603Q286 562 262 531T190 466L109 406H290V352H35Z" />
<glyph unicode="&#xb3;" glyph-name="uni00B3" horiz-adv-x="330" d="M161 347Q101 347 66 374T26 454H93Q97 422 115 410T160 398Q190 398 207 412T225 452Q225 479 206 493T157 508H111V549H156Q185 549 203 563T222 604Q222 629 205 643T159 658Q130 658 115
646T93 611H30Q34 653 69 681T165 710Q219 710 256 681T293 608Q293 577 276 557T228 529V527Q257 518 276 498T296 444Q296 404 260 376T161 347Z" />
<glyph unicode="&#xb4;" glyph-name="acute" horiz-adv-x="254" d="M22 537V600L232 727V654L22 537Z" />
<glyph unicode="&#xb5;" glyph-name="uni00B5" horiz-adv-x="583" d="M69 -220V496H153V215Q153 60 281 60Q345 60 387 106T430 239V496H514V0H438L433 88Q409 42 364 15T261 -12Q195 -12 153 20V-220H69Z" />
<glyph unicode="&#xb6;" glyph-name="paragraph" horiz-adv-x="586" d="M282 -100V295H272Q190 295 138 322T61 394T36 497Q36 554 61 600T139 673T272 700H512V-100H438V634H356V-100H282Z" />
<glyph unicode="&#xb7;" glyph-name="middot" horiz-adv-x="195" d="M98 285Q73 285 57 301T40 342Q40 367 56 383T98 399Q122 399 138 383T155 342Q155 318 139 302T98 285Z" />
<glyph unicode="&#xb8;" glyph-name="cedilla" horiz-adv-x="272" d="M22 -259V-206H114Q182 -206 182 -158Q182 -113 114 -113H65V7H121V-63Q178 -62 214 -86T250 -159Q250 -206 216 -232T130 -259H22Z" />
<glyph unicode="&#xb9;" glyph-name="uni00B9" horiz-adv-x="204" d="M95 352V638L28 620V662L118 704H162V352H95Z" />
<glyph unicode="&#xba;" glyph-name="ordmasculine" horiz-adv-x="433" d="M216 348Q163 348 122 371T58 435T34 530Q34 585 58 626T123 689T217 712Q270 712 311 690T376 626T400 530Q400 476 376 435T310 371T216 348ZM216 403Q262 403 296 435T331 530Q331
593 297 626T216 659Q170 659 137 626T103 530Q103 468 136 436T216 403Z" />
<glyph unicode="&#xbb;" glyph-name="guillemotright" horiz-adv-x="452" d="M228 120L328 295L228 470H311L408 295L311 120H228ZM50 120L150 295L50 470H133L230 295L133 120H50Z" />
<glyph unicode="&#xbc;" glyph-name="onequarter" horiz-adv-x="625" d="M105 352V638L38 620V662L129 704H172V352H105ZM61 0L431 700H510L142 0H61ZM476 0V70H295V109L455 354H543V113H591V70H543V0H476ZM362 114H478V292L362 114Z" />
<glyph unicode="&#xbd;" glyph-name="onehalf" horiz-adv-x="674" d="M105 352V638L38 620V662L129 704H172V352H105ZM57 0L420 700H501L138 0H57ZM365 -1V47L478 139Q506 163 526 188T546 247Q546 277 530 291T491 306Q438 306 431 247H364Q367 293 399 325T494
357Q551 357 583 326T616 250Q616 209 592 178T521 113L440 53H621V-1H365Z" />
<glyph unicode="&#xbe;" glyph-name="threequarters" horiz-adv-x="716" d="M175 347Q114 347 79 374T40 454H106Q110 422 128 410T174 398Q203 398 220 412T238 452Q238 479 219 493T170 508H124V549H169Q198 549 217 563T236 604Q236 629 219 643T173 658Q144
658 128 646T107 611H43Q48 653 82 681T178 710Q233 710 270 681T307 608Q307 577 290 557T242 529V527Q271 518 290 498T309 444Q309 404 273 376T175 347ZM154 0L532 700H611L234 0H154ZM567 0V70H386V109L545 354H634V113H682V70H634V0H567ZM453 113H569V293L453
113Z" />
<glyph unicode="&#xbf;" glyph-name="questiondown" horiz-adv-x="516" d="M328 439Q304 439 288 455T271 496Q271 520 287 537T328 554Q353 554 369 537T386 496Q386 472 370 456T328 439ZM264 -164Q199 -164 150 -139T72 -67T44 42Q44 116 75 161T162 228T288
250L291 353H364L368 191H337Q281 191 233 181T154 138T124 42Q124 -20 163 -56T264 -92Q328 -92 365 -58T402 37H482Q483 -23 456 -68T379 -139T264 -164Z" />
<glyph unicode="&#xc0;" glyph-name="Agrave" horiz-adv-x="664" d="M30 0L288 700H377L634 0H545L481 180H183L118 0H30ZM208 248H456L332 594L208 248ZM377 741L167 858V931L377 804V741Z" />
<glyph unicode="&#xc1;" glyph-name="Aacute" horiz-adv-x="664" d="M30 0L288 700H377L634 0H545L481 180H183L118 0H30ZM208 248H456L332 594L208 248ZM288 741V804L498 931V858L288 741Z" />
<glyph unicode="&#xc2;" glyph-name="Acircumflex" horiz-adv-x="664" d="M30 0L288 700H377L634 0H545L481 180H183L118 0H30ZM208 248H456L332 594L208 248ZM196 755V821L333 902L470 821V755L333 839L196 755Z" />
<glyph unicode="&#xc3;" glyph-name="Atilde" horiz-adv-x="664" d="M30 0L288 700H377L634 0H545L481 180H183L118 0H30ZM208 248H456L332 594L208 248ZM397 756Q370 756 352 768T319 791T282 803Q246 803 240 758H191Q198 809 223 834T286 859Q312 859 330 847T363
824T401 812Q417 812 429 823T444 857H493Q487 808 461 782T397 756Z" />
<glyph unicode="&#xc4;" glyph-name="Adieresis" horiz-adv-x="664" d="M30 0L288 700H377L634 0H545L481 180H183L118 0H30ZM208 248H456L332 594L208 248ZM414 775Q393 775 379 789T364 825Q364 845 378 860T414 875Q435 875 449 860T463 825Q463 804 449 790T414
775ZM254 775Q233 775 219 789T204 825Q204 845 218 860T254 875Q274 875 289 860T304 825Q304 804 289 790T254 775Z" />
<glyph unicode="&#xc5;" glyph-name="Aring" horiz-adv-x="664" d="M30 0L288 700H377L634 0H545L481 180H183L118 0H30ZM208 248H456L332 594L208 248ZM333 761Q290 761 259 788T228 864Q228 912 259 939T333 967Q377 967 407 940T438 864Q438 816 408 789T333
761ZM333 804Q357 804 373 820T390 864Q390 891 374 907T333 923Q309 923 293 907T276 864Q276 837 292 821T333 804Z" />
<glyph unicode="&#xc6;" glyph-name="AE" horiz-adv-x="911" d="M30 0L429 700H854V633H565V386H824V320H565V67H854V0H481V159H212L122 0H30ZM481 631L250 226H481V631Z" />
<glyph unicode="&#xc7;" glyph-name="Ccedilla" horiz-adv-x="720" d="M381 -12Q278 -12 204 33T88 160T47 350Q47 457 88 538T203 666T381 712Q501 712 576 655T673 494H580Q564 559 515 598T381 638Q306 638 250 604T164 505T133 350Q133 260 163 196T250 97T381
62Q465 62 514 100T580 203H673Q652 102 577 45T381 -12ZM315 -260V-207H407Q475 -207 475 -159Q475 -114 407 -114H358V6H414V-64Q471 -63 507 -87T543 -160Q543 -207 509 -233T422 -260H315Z" />
<glyph unicode="&#xc8;" glyph-name="Egrave" horiz-adv-x="564" d="M74 0V700H507V631H158V387H477V319H158V69H507V0H74ZM340 741L130 858V931L340 804V741Z" />
<glyph unicode="&#xc9;" glyph-name="Eacute" horiz-adv-x="564" d="M74 0V700H507V631H158V387H477V319H158V69H507V0H74ZM251 741V804L461 931V858L251 741Z" />
<glyph unicode="&#xca;" glyph-name="Ecircumflex" horiz-adv-x="564" d="M74 0V700H507V631H158V387H477V319H158V69H507V0H74ZM158 755V821L295 902L432 821V755L295 839L158 755Z" />
<glyph unicode="&#xcb;" glyph-name="Edieresis" horiz-adv-x="564" d="M74 0V700H507V631H158V387H477V319H158V69H507V0H74ZM376 775Q355 775 341 789T326 825Q326 845 340 860T376 875Q397 875 411 860T425 825Q425 804 411 790T376 775ZM216 775Q195 775 181
789T166 825Q166 845 180 860T216 875Q236 875 251 860T266 825Q266 804 251 790T216 775Z" />
<glyph unicode="&#xcc;" glyph-name="Igrave" horiz-adv-x="232" d="M74 0V700H158V0H74ZM417 741L207 858V931L417 804V741Z" />
<glyph unicode="&#xcd;" glyph-name="Iacute" horiz-adv-x="232" d="M74 0V700H158V0H74ZM71 741V804L281 931V858L71 741Z" />
<glyph unicode="&#xce;" glyph-name="Icircumflex" horiz-adv-x="232" d="M74 0V700H158V0H74ZM235 755V821L372 902L509 821V755L372 839L235 755Z" />
<glyph unicode="&#xcf;" glyph-name="Idieresis" horiz-adv-x="232" d="M74 0V700H158V0H74ZM453 775Q432 775 418 789T403 825Q403 845 417 860T453 875Q474 875 488 860T502 825Q502 804 488 790T453 775ZM293 775Q272 775 258 789T243 825Q243 845 257 860T293
875Q313 875 328 860T343 825Q343 804 328 790T293 775Z" />
<glyph unicode="&#xd0;" glyph-name="Eth" horiz-adv-x="717" d="M95 0V311H8V387H95V700H310Q495 700 582 606T670 348Q670 187 583 94T310 0H95ZM179 70H309Q410 70 470 103T557 199T584 348Q584 436 558 499T471 596T309 630H179V387H381V311H179V70Z" />
<glyph unicode="&#xd1;" glyph-name="Ntilde" horiz-adv-x="689" d="M74 0V700H158L531 139V700H615V0H531L158 561V0H74ZM410 756Q383 756 365 768T332 791T295 803Q259 803 253 758H204Q211 809 236 834T299 859Q325 859 343 847T376 824T414 812Q430 812 442
823T457 857H506Q500 808 474 782T410 756Z" />
<glyph unicode="&#xd2;" glyph-name="Ograve" horiz-adv-x="784" d="M392 -12Q289 -12 212 33T91 161T47 350Q47 457 90 538T211 666T392 712Q496 712 573 666T694 539T737 350Q737 243 694 161T574 34T392 -12ZM392 62Q469 62 527 96T618 195T651 350Q651 440
619 504T528 602T392 637Q315 637 257 603T166 504T133 350Q133 260 165 196T256 97T392 62ZM437 741L227 858V931L437 804V741Z" />
<glyph unicode="&#xd3;" glyph-name="Oacute" horiz-adv-x="784" d="M392 -12Q289 -12 212 33T91 161T47 350Q47 457 90 538T211 666T392 712Q496 712 573 666T694 539T737 350Q737 243 694 161T574 34T392 -12ZM392 62Q469 62 527 96T618 195T651 350Q651 440
619 504T528 602T392 637Q315 637 257 603T166 504T133 350Q133 260 165 196T256 97T392 62ZM348 741V804L558 931V858L348 741Z" />
<glyph unicode="&#xd4;" glyph-name="Ocircumflex" horiz-adv-x="784" d="M392 -12Q289 -12 212 33T91 161T47 350Q47 457 90 538T211 666T392 712Q496 712 573 666T694 539T737 350Q737 243 694 161T574 34T392 -12ZM392 62Q469 62 527 96T618 195T651 350Q651
440 619 504T528 602T392 637Q315 637 257 603T166 504T133 350Q133 260 165 196T256 97T392 62ZM255 755V821L392 902L529 821V755L392 839L255 755Z" />
<glyph unicode="&#xd5;" glyph-name="Otilde" horiz-adv-x="784" d="M392 -12Q289 -12 212 33T91 161T47 350Q47 457 90 538T211 666T392 712Q496 712 573 666T694 539T737 350Q737 243 694 161T574 34T392 -12ZM392 62Q469 62 527 96T618 195T651 350Q651 440
619 504T528 602T392 637Q315 637 257 603T166 504T133 350Q133 260 165 196T256 97T392 62ZM457 756Q430 756 412 768T379 791T342 803Q306 803 300 758H251Q258 809 283 834T346 859Q372 859 390 847T423 824T461 812Q477 812 489 823T504 857H553Q547 808 521
782T457 756Z" />
<glyph unicode="&#xd6;" glyph-name="Odieresis" horiz-adv-x="784" d="M392 -12Q289 -12 212 33T91 161T47 350Q47 457 90 538T211 666T392 712Q496 712 573 666T694 539T737 350Q737 243 694 161T574 34T392 -12ZM392 62Q469 62 527 96T618 195T651 350Q651
440 619 504T528 602T392 637Q315 637 257 603T166 504T133 350Q133 260 165 196T256 97T392 62ZM473 775Q452 775 438 789T423 825Q423 845 437 860T473 875Q494 875 508 860T522 825Q522 804 508 790T473 775ZM313 775Q292 775 278 789T263 825Q263 845 277 860T313
875Q333 875 348 860T363 825Q363 804 348 790T313 775Z" />
<glyph unicode="&#xd7;" glyph-name="multiply" horiz-adv-x="495" d="M113 106L63 156L197 291L68 420L119 470L248 341L382 476L432 426L298 291L427 162L376 112L247 241L113 106Z" />
<glyph unicode="&#xd8;" glyph-name="Oslash" horiz-adv-x="786" d="M39 0L130 102Q90 149 69 212T47 350Q47 457 90 538T211 666T392 712Q456 712 510 694T607 643L658 700H747L655 596Q694 549 715 487T737 350Q737 243 694 161T574 34T392 -12Q329 -12 275
5T179 56L129 0H39ZM133 350Q133 293 146 247T184 164L555 584Q489 637 392 637Q315 637 257 603T166 504T133 350ZM392 62Q469 62 527 96T618 195T651 350Q651 406 638 452T601 534L231 115Q296 62 392 62Z" />
<glyph unicode="&#xd9;" glyph-name="Ugrave" horiz-adv-x="656" d="M327 -12Q255 -12 197 16T103 105T68 258V700H152V257Q152 155 201 109T329 63Q408 63 456 109T504 257V700H588V258Q588 165 553 105T459 17T327 -12ZM372 741L162 858V931L372 804V741Z" />
<glyph unicode="&#xda;" glyph-name="Uacute" horiz-adv-x="656" d="M327 -12Q255 -12 197 16T103 105T68 258V700H152V257Q152 155 201 109T329 63Q408 63 456 109T504 257V700H588V258Q588 165 553 105T459 17T327 -12ZM282 741V804L492 931V858L282 741Z" />
<glyph unicode="&#xdb;" glyph-name="Ucircumflex" horiz-adv-x="656" d="M327 -12Q255 -12 197 16T103 105T68 258V700H152V257Q152 155 201 109T329 63Q408 63 456 109T504 257V700H588V258Q588 165 553 105T459 17T327 -12ZM190 755V821L327 902L464 821V755L327
839L190 755Z" />
<glyph unicode="&#xdc;" glyph-name="Udieresis" horiz-adv-x="656" d="M327 -12Q255 -12 197 16T103 105T68 258V700H152V257Q152 155 201 109T329 63Q408 63 456 109T504 257V700H588V258Q588 165 553 105T459 17T327 -12ZM408 775Q387 775 373 789T358 825Q358
845 372 860T408 875Q429 875 443 860T457 825Q457 804 443 790T408 775ZM248 775Q227 775 213 789T198 825Q198 845 212 860T248 875Q268 875 283 860T298 825Q298 804 283 790T248 775Z" />
<glyph unicode="&#xdd;" glyph-name="Yacute" horiz-adv-x="579" d="M248 0V266L20 700H115L290 346L465 700H559L332 266V0H248ZM246 741V804L456 931V858L246 741Z" />
<glyph unicode="&#xde;" glyph-name="Thorn" horiz-adv-x="579" d="M74 0V700H158V554H304Q386 554 439 528T517 455T543 350Q543 293 518 247T440 174T304 147H158V0H74ZM158 217H302Q386 217 421 253T457 350Q457 414 422 449T302 484H158V217Z" />
<glyph unicode="&#xdf;" glyph-name="germandbls" horiz-adv-x="664" d="M441 -10Q355 -10 301 37T238 169H321Q325 118 356 87T440 56Q488 56 514 79T541 144Q541 181 518 204T438 246Q359 273 325 301T290 375Q290 405 304 424T340 458T382 485T418 517T432
562Q432 608 397 634T300 661Q225 661 190 621T154 512V0H71V520Q71 581 97 629T174 704T302 732Q371 732 419 710T491 650T516 569Q516 534 502 511T467 473T425 445T390 419T375 386Q375 363 397 346T489 307Q562 282 594 245T626 150Q626 79 577 35T441 -10Z"
/>
<glyph unicode="&#xe0;" glyph-name="agrave" horiz-adv-x="541" d="M234 -12Q172 -12 131 9T70 65T50 141Q50 217 108 258T266 299H400V305Q400 370 366 403T275 437Q226 437 191 413T146 341H60Q65 395 96 432T175 488T275 508Q379 508 431 453T484 305V0H409L404
89Q383 47 343 18T234 -12ZM247 59Q295 59 329 84T382 149T400 233V234H273Q199 234 169 209T138 145Q138 106 166 83T247 59ZM316 537L106 654V727L316 600V537Z" />
<glyph unicode="&#xe1;" glyph-name="aacute" horiz-adv-x="541" d="M234 -12Q172 -12 131 9T70 65T50 141Q50 217 108 258T266 299H400V305Q400 370 366 403T275 437Q226 437 191 413T146 341H60Q65 395 96 432T175 488T275 508Q379 508 431 453T484 305V0H409L404
89Q383 47 343 18T234 -12ZM247 59Q295 59 329 84T382 149T400 233V234H273Q199 234 169 209T138 145Q138 106 166 83T247 59ZM249 537V600L459 727V654L249 537Z" />
<glyph unicode="&#xe2;" glyph-name="acircumflex" horiz-adv-x="541" d="M234 -12Q172 -12 131 9T70 65T50 141Q50 217 108 258T266 299H400V305Q400 370 366 403T275 437Q226 437 191 413T146 341H60Q65 395 96 432T175 488T275 508Q379 508 431 453T484 305V0H409L404
89Q383 47 343 18T234 -12ZM247 59Q295 59 329 84T382 149T400 233V234H273Q199 234 169 209T138 145Q138 106 166 83T247 59ZM135 551V617L272 698L409 617V551L272 635L135 551Z" />
<glyph unicode="&#xe3;" glyph-name="atilde" horiz-adv-x="541" d="M234 -12Q172 -12 131 9T70 65T50 141Q50 217 108 258T266 299H400V305Q400 370 366 403T275 437Q226 437 191 413T146 341H60Q65 395 96 432T175 488T275 508Q379 508 431 453T484 305V0H409L404
89Q383 47 343 18T234 -12ZM247 59Q295 59 329 84T382 149T400 233V234H273Q199 234 169 209T138 145Q138 106 166 83T247 59ZM326 552Q299 552 282 564T248 587T212 599Q175 599 169 554H120Q127 605 152 630T215 655Q242 655 259 643T293 620T330 608Q347 608
359 619T374 653H422Q417 604 391 578T326 552Z" />
<glyph unicode="&#xe4;" glyph-name="adieresis" horiz-adv-x="541" d="M234 -12Q172 -12 131 9T70 65T50 141Q50 217 108 258T266 299H400V305Q400 370 366 403T275 437Q226 437 191 413T146 341H60Q65 395 96 432T175 488T275 508Q379 508 431 453T484 305V0H409L404
89Q383 47 343 18T234 -12ZM247 59Q295 59 329 84T382 149T400 233V234H273Q199 234 169 209T138 145Q138 106 166 83T247 59ZM353 571Q332 571 318 585T303 621Q303 641 317 656T353 671Q373 671 387 656T402 621Q402 600 388 586T353 571ZM192 571Q171 571 157
585T143 621Q143 641 157 656T192 671Q213 671 227 656T242 621Q242 600 228 586T192 571Z" />
<glyph unicode="&#xe5;" glyph-name="aring" horiz-adv-x="541" d="M234 -12Q172 -12 131 9T70 65T50 141Q50 217 108 258T266 299H400V305Q400 370 366 403T275 437Q226 437 191 413T146 341H60Q65 395 96 432T175 488T275 508Q379 508 431 453T484 305V0H409L404
89Q383 47 343 18T234 -12ZM247 59Q295 59 329 84T382 149T400 233V234H273Q199 234 169 209T138 145Q138 106 166 83T247 59ZM272 557Q229 557 198 584T167 660Q167 708 198 735T272 763Q316 763 346 736T377 660Q377 612 347 585T272 557ZM272 600Q296 600 312
616T329 660Q329 687 313 703T272 719Q249 719 232 703T215 660Q215 633 232 617T272 600Z" />
<glyph unicode="&#xe6;" glyph-name="ae" horiz-adv-x="913" d="M237 -12Q174 -12 133 9T71 65T50 141Q50 217 107 257T261 297H399V305Q399 370 365 403T277 437Q232 437 198 413T155 341H68Q74 395 105 432T181 488T277 508Q340 508 385 484T455 417Q487 461
535 484T642 508Q712 508 763 476T843 392T871 278Q871 268 871 257T869 232H484Q486 174 509 136T567 78T640 59Q696 59 731 87T782 163H863Q845 88 787 38T641 -12Q575 -12 521 19T436 106Q407 56 358 22T237 -12ZM485 297H788Q784 363 742 400T642 437Q584 437
539 401T485 297ZM243 59Q285 59 318 81T373 137T398 212V232H269Q198 232 168 208T138 146Q138 107 166 83T243 59Z" />
<glyph unicode="&#xe7;" glyph-name="ccedilla" horiz-adv-x="570" d="M297 -12Q226 -12 170 20T81 111T48 248Q48 326 80 384T169 475T297 508Q385 508 445 462T522 339H436Q426 385 387 410T296 436Q254 436 217 415T157 352T134 248Q134 186 157 144T217 81T296
59Q348 59 387 84T436 157H522Q507 82 446 35T297 -12ZM225 -260V-207H317Q385 -207 385 -159Q385 -114 317 -114H268V6H324V-64Q381 -63 417 -87T453 -160Q453 -207 419 -233T333 -260H225Z" />
<glyph unicode="&#xe8;" glyph-name="egrave" horiz-adv-x="569" d="M292 -12Q221 -12 166 20T80 111T48 248Q48 326 79 384T165 475T294 508Q366 508 418 476T499 390T527 276Q527 265 527 254T526 229H131Q134 172 157 135T216 78T292 59Q344 59 379 83T430
148H513Q493 79 437 34T292 -12ZM292 437Q232 437 186 401T132 294H444Q441 361 398 399T292 437ZM336 537L126 654V727L336 600V537Z" />
<glyph unicode="&#xe9;" glyph-name="eacute" horiz-adv-x="569" d="M292 -12Q221 -12 166 20T80 111T48 248Q48 326 79 384T165 475T294 508Q366 508 418 476T499 390T527 276Q527 265 527 254T526 229H131Q134 172 157 135T216 78T292 59Q344 59 379 83T430
148H513Q493 79 437 34T292 -12ZM292 437Q232 437 186 401T132 294H444Q441 361 398 399T292 437ZM269 537V600L479 727V654L269 537Z" />
<glyph unicode="&#xea;" glyph-name="ecircumflex" horiz-adv-x="569" d="M292 -12Q221 -12 166 20T80 111T48 248Q48 326 79 384T165 475T294 508Q366 508 418 476T499 390T527 276Q527 265 527 254T526 229H131Q134 172 157 135T216 78T292 59Q344 59 379 83T430
148H513Q493 79 437 34T292 -12ZM292 437Q232 437 186 401T132 294H444Q441 361 398 399T292 437ZM154 551V617L291 698L428 617V551L291 635L154 551Z" />
<glyph unicode="&#xeb;" glyph-name="edieresis" horiz-adv-x="569" d="M292 -12Q221 -12 166 20T80 111T48 248Q48 326 79 384T165 475T294 508Q366 508 418 476T499 390T527 276Q527 265 527 254T526 229H131Q134 172 157 135T216 78T292 59Q344 59 379 83T430
148H513Q493 79 437 34T292 -12ZM292 437Q232 437 186 401T132 294H444Q441 361 398 399T292 437ZM373 571Q352 571 338 585T323 621Q323 641 337 656T373 671Q393 671 407 656T422 621Q422 600 408 586T373 571ZM212 571Q191 571 177 585T163 621Q163 641 177
656T212 671Q233 671 247 656T262 621Q262 600 248 586T212 571Z" />
<glyph unicode="&#xec;" glyph-name="igrave" horiz-adv-x="222" d="M69 0V496H153V0H69ZM412 537L202 654V727L412 600V537Z" />
<glyph unicode="&#xed;" glyph-name="iacute" horiz-adv-x="222" d="M69 0V496H153V0H69ZM88 537V600L298 727V654L88 537Z" />
<glyph unicode="&#xee;" glyph-name="icircumflex" horiz-adv-x="222" d="M69 0V496H153V0H69ZM230 551V617L367 698L504 617V551L367 635L230 551Z" />
<glyph unicode="&#xef;" glyph-name="idieresis" horiz-adv-x="222" d="M69 0V496H153V0H69ZM448 571Q427 571 413 585T398 621Q398 641 412 656T448 671Q468 671 482 656T497 621Q497 600 483 586T448 571ZM287 571Q266 571 252 585T238 621Q238 641 252 656T287
671Q308 671 322 656T337 621Q337 600 323 586T287 571Z" />
<glyph unicode="&#xf0;" glyph-name="eth" horiz-adv-x="626" d="M311 -12Q234 -12 175 23T82 116T48 247Q48 322 82 381T174 473T305 507Q354 507 401 489T483 429Q467 473 444 515T386 598L252 551V608L347 641Q318 671 283 700H367Q389 682 408 663L539 708V651L449
619Q578 468 578 272Q578 188 543 124T447 24T311 -12ZM313 59Q360 59 401 82T467 147T492 248Q492 306 467 348T401 413T313 436Q266 436 225 413T159 348T134 248Q134 190 159 148T225 82T313 59Z" />
<glyph unicode="&#xf1;" glyph-name="ntilde" horiz-adv-x="572" d="M69 0V496H145L150 407Q174 454 219 481T321 508Q409 508 461 455T514 290V0H430V281Q430 436 302 436Q238 436 196 390T153 257V0H69ZM359 552Q332 552 315 564T281 587T245 599Q208 599 202
554H153Q160 605 185 630T248 655Q275 655 292 643T326 620T363 608Q380 608 392 619T407 653H455Q450 604 424 578T359 552Z" />
<glyph unicode="&#xf2;" glyph-name="ograve" horiz-adv-x="592" d="M295 -12Q225 -12 169 20T81 110T48 248Q48 327 81 385T170 476T297 508Q367 508 423 476T511 386T544 248Q544 169 511 111T422 20T295 -12ZM295 60Q338 60 375 81T435 144T458 248Q458 310
436 352T376 415T297 436Q254 436 217 415T157 352T134 248Q134 186 157 144T216 81T295 60ZM342 537L132 654V727L342 600V537Z" />
<glyph unicode="&#xf3;" glyph-name="oacute" horiz-adv-x="592" d="M295 -12Q225 -12 169 20T81 110T48 248Q48 327 81 385T170 476T297 508Q367 508 423 476T511 386T544 248Q544 169 511 111T422 20T295 -12ZM295 60Q338 60 375 81T435 144T458 248Q458 310
436 352T376 415T297 436Q254 436 217 415T157 352T134 248Q134 186 157 144T216 81T295 60ZM274 537V600L484 727V654L274 537Z" />
<glyph unicode="&#xf4;" glyph-name="ocircumflex" horiz-adv-x="592" d="M295 -12Q225 -12 169 20T81 110T48 248Q48 327 81 385T170 476T297 508Q367 508 423 476T511 386T544 248Q544 169 511 111T422 20T295 -12ZM295 60Q338 60 375 81T435 144T458 248Q458
310 436 352T376 415T297 436Q254 436 217 415T157 352T134 248Q134 186 157 144T216 81T295 60ZM160 551V617L297 698L434 617V551L297 635L160 551Z" />
<glyph unicode="&#xf5;" glyph-name="otilde" horiz-adv-x="592" d="M295 -12Q225 -12 169 20T81 110T48 248Q48 327 81 385T170 476T297 508Q367 508 423 476T511 386T544 248Q544 169 511 111T422 20T295 -12ZM295 60Q338 60 375 81T435 144T458 248Q458 310
436 352T376 415T297 436Q254 436 217 415T157 352T134 248Q134 186 157 144T216 81T295 60ZM352 552Q325 552 308 564T274 587T238 599Q201 599 195 554H146Q153 605 178 630T241 655Q268 655 285 643T319 620T356 608Q373 608 385 619T400 653H448Q443 604 417
578T352 552Z" />
<glyph unicode="&#xf6;" glyph-name="odieresis" horiz-adv-x="592" d="M295 -12Q225 -12 169 20T81 110T48 248Q48 327 81 385T170 476T297 508Q367 508 423 476T511 386T544 248Q544 169 511 111T422 20T295 -12ZM295 60Q338 60 375 81T435 144T458 248Q458
310 436 352T376 415T297 436Q254 436 217 415T157 352T134 248Q134 186 157 144T216 81T295 60ZM378 571Q357 571 343 585T328 621Q328 641 342 656T378 671Q398 671 412 656T427 621Q427 600 413 586T378 571ZM217 571Q196 571 182 585T168 621Q168 641 182 656T217
671Q238 671 252 656T267 621Q267 600 253 586T217 571Z" />
<glyph unicode="&#xf7;" glyph-name="divide" horiz-adv-x="524" d="M262 378Q237 378 221 395T204 436Q204 460 220 476T262 493Q286 493 302 477T319 436Q319 412 303 395T262 378ZM63 255V326H461V255H63ZM262 89Q237 89 221 105T204 146Q204 170 220 186T262
203Q286 203 302 187T319 146Q319 122 303 106T262 89Z" />
<glyph unicode="&#xf8;" glyph-name="oslash" horiz-adv-x="596" d="M43 0L107 74Q80 107 65 151T50 248Q50 327 83 385T172 476T299 508Q382 508 445 463L474 496H553L488 422Q515 389 530 345T546 248Q546 169 513 111T424 20T297 -12Q214 -12 151 33L123 0H43ZM134
248Q134 214 141 186T161 136L395 406Q354 438 299 438Q255 438 218 417T157 354T134 248ZM297 58Q340 58 377 79T438 142T462 248Q462 282 455 310T435 360L200 90Q242 58 297 58Z" />
<glyph unicode="&#xf9;" glyph-name="ugrave" horiz-adv-x="572" d="M250 -12Q162 -12 110 41T58 206V496H142V215Q142 60 269 60Q334 60 376 106T419 239V496H503V0H427L421 89Q398 42 353 15T250 -12ZM321 537L111 654V727L321 600V537Z" />
<glyph unicode="&#xfa;" glyph-name="uacute" horiz-adv-x="572" d="M250 -12Q162 -12 110 41T58 206V496H142V215Q142 60 269 60Q334 60 376 106T419 239V496H503V0H427L421 89Q398 42 353 15T250 -12ZM232 537V600L442 727V654L232 537Z" />
<glyph unicode="&#xfb;" glyph-name="ucircumflex" horiz-adv-x="572" d="M250 -12Q162 -12 110 41T58 206V496H142V215Q142 60 269 60Q334 60 376 106T419 239V496H503V0H427L421 89Q398 42 353 15T250 -12ZM140 551V617L277 698L414 617V551L277 635L140 551Z" />
<glyph unicode="&#xfc;" glyph-name="udieresis" horiz-adv-x="572" d="M250 -12Q162 -12 110 41T58 206V496H142V215Q142 60 269 60Q334 60 376 106T419 239V496H503V0H427L421 89Q398 42 353 15T250 -12ZM357 571Q336 571 322 585T307 621Q307 641 321 656T357
671Q378 671 392 656T406 621Q406 600 392 586T357 571ZM197 571Q176 571 162 585T147 621Q147 641 161 656T197 671Q217 671 232 656T247 621Q247 600 232 586T197 571Z" />
<glyph unicode="&#xfd;" glyph-name="yacute" horiz-adv-x="556" d="M123 -220L246 48H217L20 496H111L275 110L449 496H536L211 -220H123ZM232 537V600L442 727V654L232 537Z" />
<glyph unicode="&#xfe;" glyph-name="thorn" horiz-adv-x="628" d="M69 -220V720H153V414Q177 450 221 479T335 508Q409 508 464 474T549 381T580 247Q580 172 550 114T464 22T334 -12Q273 -12 226 13T153 83V-220H69ZM325 61Q375 61 413 84T473 150T495 248Q495
304 473 346T413 411T325 435Q275 435 237 412T177 346T155 248Q155 192 177 150T237 85T325 61Z" />
<glyph unicode="&#xff;" glyph-name="ydieresis" horiz-adv-x="556" d="M123 -220L246 48H217L20 496H111L275 110L449 496H536L211 -220H123ZM357 571Q336 571 322 585T307 621Q307 641 321 656T357 671Q378 671 392 656T406 621Q406 600 392 586T357 571ZM197
571Q176 571 162 585T147 621Q147 641 161 656T197 671Q217 671 232 656T247 621Q247 600 232 586T197 571Z" />
<glyph unicode="&#x2013;" glyph-name="endash" horiz-adv-x="641" d="M59 255V326H583V255H59Z" />
<glyph unicode="&#x2014;" glyph-name="emdash" horiz-adv-x="846" d="M59 255V326H787V255H59Z" />
<glyph unicode="&#x2018;" glyph-name="quoteleft" horiz-adv-x="212" d="M29 477L119 700H179L123 477H29Z" />
<glyph unicode="&#x2019;" glyph-name="quoteright" horiz-adv-x="213" d="M33 477L91 700H185L93 477H33Z" />
<glyph unicode="&#x201a;" glyph-name="quotesinglbase" horiz-adv-x="184" d="M2 -121L59 102H153L62 -121H2Z" />
<glyph unicode="&#x201c;" glyph-name="quotedblleft" horiz-adv-x="370" d="M29 477L119 700H179L123 477H29ZM185 477L276 700H336L279 477H185Z" />
<glyph unicode="&#x201d;" glyph-name="quotedblright" horiz-adv-x="370" d="M190 477L247 700H341L250 477H190ZM33 477L91 700H185L93 477H33Z" />
<glyph unicode="&#x201e;" glyph-name="quotedblbase" horiz-adv-x="342" d="M2 -121L59 102H153L62 -121H2ZM161 -121L217 102H311L221 -121H161Z" />
<glyph unicode="&#x2022;" glyph-name="bullet" horiz-adv-x="358" d="M178 213Q146 213 119 229T75 272T59 333Q59 367 75 394T118 438T178 454Q212 454 239 438T283 395T299 333Q299 300 283 273T240 229T178 213Z" />
<glyph unicode="&#x2039;" glyph-name="guilsinglleft" horiz-adv-x="274" d="M141 120L44 295L141 470H224L124 295L224 120H141Z" />
<glyph unicode="&#x203a;" glyph-name="guilsinglright" horiz-adv-x="274" d="M50 120L150 295L50 470H133L230 295L133 120H50Z" />
</font>
</defs>
</svg>
